Hahahahah pe torrenters nu poti descarca daca nu esti logat

log in pentru prostimi hhhhhhhhh

nici upload button n-au

perverti zgirciti

////

Artist: ONE OK ROCK
Album: 35xxxv
Genre: Alternative Rock/Post-hardcore
Release date: February 11, 2015
Label: A-Sketch
Catalog #: AZCS-1041
Audio Codec: FLAC
Type of Rip: Tracks + .cue
Audio Bitrate: Lossless
Duration: 00:55:00
Source: Jpopsuki

Tracklist:
01. 3xxxv5
02. Take me to the top
03. Cry out
04. Suddenly
05. Mighty Long Fall
06. Heartache
07. Memories
08. Decision
09. Paper Planes (feat. Kellin from Sleeping with Sirens)
10. Good Goodbye
11. One by One
12. Stuck in the middle
13. Fight the night

Exact Audio Copy V1.0 beta 4 from 7. December 2014

EAC extraction logfile from 12. February 2015, 15:31

ONE OK ROCK / 35xxxv

Used drive : HL-DT-STDVD-RW GSA-H60L Adapter: 1 ID: 0

Read mode : Secure
Utilize accurate stream : Yes
Defeat audio cache : Yes
Make use of C2 pointers : No

Read offset correction : 667
Overread into Lead-In and Lead-Out : No
Fill up missing offset samples with silence : Yes
Delete leading and trailing silent blocks : No
Null samples used in CRC calculations : Yes
Used interface : Native Win32 interface for Win NT & 2000
Gap handling : Appended to previous track

Used output format : User Defined Encoder
Selected bitrate : 1024 kBit/s
Quality : High
Add ID3 tag : No
Command line compressor : D:\Programs & Games\Exact Audio Copy\Flac\flac.exe
Additional command line options : -8 -V -T “ARTIST=%artist%” -T “TITLE=%title%” -T “ALBUM=%albumtitle%” -T “DATE=%year%” -T “TRACKNUMBER=%tracknr%” -T “GENRE=%genre%” -T “PERFORMER=%albuminterpret%” -T “COMPOSER=%composer%” %haslyrics%–tag-from-file=LYRICS=”%lyricsfile%”%haslyrics% -T “ALBUMARTIST=%albumartist%” -T “DISCNUMBER=%cdnumber%” -T “TOTALDISCS=%totalcds%” -T “TOTALTRACKS=%numtracks%” -T “COMMENT=%comment%” %source% -o %dest%
TOC of the extracted CD

Track | Start | Length | Start sector | End sector
———————————————————
1 | 0:00.00 | 1:41.39 | 0 | 7613
2 | 1:41.39 | 3:15.49 | 7614 | 22287
3 | 4:57.13 | 3:47.48 | 22288 | 39360
4 | 8:44.61 | 3:03.09 | 39361 | 53094
5 | 11:47.70 | 4:03.18 | 53095 | 71337
6 | 15:51.13 | 4:25.10 | 71338 | 91222
7 | 20:16.23 | 3:21.35 | 91223 | 106332
8 | 23:37.58 | 3:45.11 | 106333 | 123218
9 | 27:22.69 | 3:21.09 | 123219 | 138302
10 | 30:44.03 | 3:45.34 | 138303 | 155211
11 | 34:29.37 | 3:38.05 | 155212 | 171566
12 | 38:07.42 | 3:32.33 | 171567 | 187499
13 | 41:40.00 | 13:20.31 | 187500 | 247530
Track 1

Filename D:\EACrips\ONE OK ROCK – 35xxxv (2015)[FLAC]\01 – 3xxxv5.wav

Pre-gap length 0:00:02.00

Peak level 94.4 %
Extraction speed 2.2 X
Track quality 100.0 %
Test CRC 5D12567A
Copy CRC 5D12567A
Track not present in AccurateRip database
Copy OK

Track 2

Filename D:\EACrips\ONE OK ROCK – 35xxxv (2015)[FLAC]\02 – Take me to the top.wav

Peak level 100.0 %
Extraction speed 2.8 X
Track quality 100.0 %
Test CRC 4C4111DE
Copy CRC 4C4111DE
Track not present in AccurateRip database
Copy OK

Track 3

Filename D:\EACrips\ONE OK ROCK – 35xxxv (2015)[FLAC]\03 – Cry out.wav

Peak level 100.0 %
Extraction speed 3.1 X
Track quality 100.0 %
Test CRC 9F54CABD
Copy CRC 9F54CABD
Track not present in AccurateRip database
Copy OK

Track 4

Filename D:\EACrips\ONE OK ROCK – 35xxxv (2015)[FLAC]\04 – Suddenly.wav

Peak level 100.0 %
Extraction speed 3.1 X
Track quality 100.0 %
Test CRC BD9ABF91
Copy CRC BD9ABF91
Track not present in AccurateRip database
Copy OK

Track 5

Filename D:\EACrips\ONE OK ROCK – 35xxxv (2015)[FLAC]\05 – Mighty Long Fall.wav

Pre-gap length 0:00:00.60

Peak level 100.0 %
Extraction speed 3.5 X
Track quality 100.0 %
Test CRC 99CDC0FF
Copy CRC 99CDC0FF
Track not present in AccurateRip database
Copy OK

Track 6

Filename D:\EACrips\ONE OK ROCK – 35xxxv (2015)[FLAC]\06 – Heartache.wav

Pre-gap length 0:00:01.10

Peak level 99.7 %
Extraction speed 3.8 X
Track quality 100.0 %
Test CRC 060B5F2A
Copy CRC 060B5F2A
Track not present in AccurateRip database
Copy OK

Track 7

Filename D:\EACrips\ONE OK ROCK – 35xxxv (2015)[FLAC]\07 – Memories.wav

Pre-gap length 0:00:01.30

Peak level 100.0 %
Extraction speed 3.8 X
Track quality 100.0 %
Test CRC F602CD64
Copy CRC F602CD64
Track not present in AccurateRip database
Copy OK

Track 8

Filename D:\EACrips\ONE OK ROCK – 35xxxv (2015)[FLAC]\08 – Decision.wav

Pre-gap length 0:00:00.60

Peak level 99.3 %
Extraction speed 4.2 X
Track quality 100.0 %
Test CRC 149633E3
Copy CRC 149633E3
Track not present in AccurateRip database
Copy OK

Track 9

Filename D:\EACrips\ONE OK ROCK – 35xxxv (2015)[FLAC]\09 – Paper Planes (featuring Kellin from Sleeping with Sirens).wav

Pre-gap length 0:00:01.60

Peak level 100.0 %
Extraction speed 4.1 X
Track quality 100.0 %
Test CRC CB9BEAC9
Copy CRC CB9BEAC9
Track not present in AccurateRip database
Copy OK

Track 10

Filename D:\EACrips\ONE OK ROCK – 35xxxv (2015)[FLAC]\10 – Good Goodbye.wav

Pre-gap length 0:00:02.30

Peak level 100.0 %
Extraction speed 3.4 X
Track quality 99.9 %
Test CRC C87FCC85
Copy CRC C87FCC85
Track not present in AccurateRip database
Copy OK

Track 11

Filename D:\EACrips\ONE OK ROCK – 35xxxv (2015)[FLAC]\11 – One by One.wav

Pre-gap length 0:00:02.10

Peak level 100.0 %
Extraction speed 4.5 X
Track quality 100.0 %
Test CRC EAB9B4F5
Copy CRC EAB9B4F5
Track not present in AccurateRip database
Copy OK

Track 12

Filename D:\EACrips\ONE OK ROCK – 35xxxv (2015)[FLAC]\12 – Stuck in the middle.wav

Peak level 100.0 %
Extraction speed 4.7 X
Track quality 100.0 %
Test CRC 5FF643A0
Copy CRC 5FF643A0
Track not present in AccurateRip database
Copy OK

Track 13

Filename D:\EACrips\ONE OK ROCK – 35xxxv (2015)[FLAC]\13 – Fight the night.wav

Pre-gap length 0:00:00.60

Peak level 100.0 %
Extraction speed 5.8 X
Track quality 100.0 %
Test CRC 7456ADC0
Copy CRC 7456ADC0
Track not present in AccurateRip database
Copy OK
None of the tracks are present in the AccurateRip database

No errors occurred

End of status report

—- CUETools DB Plugin V2.1.4

[CTDB TOCID: RyK0kV42_rFjcKeK6FXTSiJ49P8-] found
Submit result: RyK0kV42_rFjcKeK6FXTSiJ49P8- has been confirmed
Track | CTDB Status
1 | (9/9) Accurately ripped
2 | (9/9) Accurately ripped
3 | (9/9) Accurately ripped
4 | (9/9) Accurately ripped
5 | (9/9) Accurately ripped
6 | (9/9) Accurately ripped
7 | (9/9) Accurately ripped
8 | (9/9) Accurately ripped
9 | (9/9) Accurately ripped
10 | (9/9) Accurately ripped
11 | (9/9) Accurately ripped
12 | (9/9) Accurately ripped
13 | (9/9) Accurately ripped

PERFORMER: auCDtect Task Manager, ver. 1.6.0 RC1 build 1.6.0.1
Copyright (c) 2008-2010 y-soft. All rights reserved
http://y-soft.org

ANALYZER: auCDtect: CD records authenticity detector, version 0.8.2
Copyright (c) 2004 Oleg Berngardt. All rights reserved.
Copyright (c) 2004 Alexander Djourik. All rights reserved.
FILE: 13 – Fight the night.flac
Size: 47791335 Hash: 96AE8F60B765EDE8FA0CF2B3A6420E3F Accuracy: -m0
Conclusion: CDDA 100%
Signature: 8DF5CDF01582716B6443C258129A256E271D67AF
FILE: 12 – Stuck in the middle.flac
Size: 28821190 Hash: C663F07EDC38191F0C7F94DBF5D9B9CE Accuracy: -m0
Conclusion: CDDA 100%
Signature: C7FAC88822B3B6ED8FAF51ED047F71A928D0471A
FILE: 11 – One by One.flac
Size: 28725534 Hash: 8529F461CBBDE254F8B57B2555C6C03E Accuracy: -m0
Conclusion: CDDA 100%
Signature: F8D20CBA8BAA33BB9163F2B1CFCDB67608796A1B
FILE: 10 – Good Goodbye.flac
Size: 26420147 Hash: AC879BECEE6820E73AC68A104BFA8A7F Accuracy: -m0
Conclusion: CDDA 100%
Signature: 5155470E32E2F7223E514DDEB28A3811DC6DB6C2
FILE: 09 – Paper Planes (featuring Kellin from Sleeping with Sirens).flac
Size: 26800674 Hash: 45E49A9AA639485E4AB9ADEBF37A5C71 Accuracy: -m0
Conclusion: CDDA 100%
Signature: 5C75E07E2766B9069AB4C9BEEE4961FAF0D2BF5A
FILE: 08 – Decision.flac
Size: 28277832 Hash: B551D3E7B39AC19F8C53DDC109486A0D Accuracy: -m0
Conclusion: CDDA 100%
Signature: 78E912264F78BCACF0F214241955FC5F65474ACB
FILE: 07 – Memories.flac
Size: 26003078 Hash: 0030A4166FD0337EABAD12C6D0D56FF7 Accuracy: -m0
Conclusion: CDDA 100%
Signature: C15EF30851337CF1F6BC4ED35206814E5FAB7658
FILE: 06 – Heartache.flac
Size: 32154816 Hash: 94DA9ED8C8C56E17BA934D91F9BE0917 Accuracy: -m0
Conclusion: CDDA 99%
Signature: 5F1067303CAD3125F4110D1D860781E6FFF7D8A8
FILE: 05 – Mighty Long Fall.flac
Size: 32804280 Hash: 7EB8677C4090893A405D01AD0A785473 Accuracy: -m0
Conclusion: CDDA 100%
Signature: C61119C184A22B4950886678B03B0073522C458A
FILE: 04 – Suddenly.flac
Size: 24223053 Hash: 7EEF3656B6FC7E2F7EA1DE3471B98227 Accuracy: -m0
Conclusion: CDDA 100%
Signature: D1EA87CE52991A220581C4EEA917E84971F8CD31
FILE: 03 – Cry out.flac
Size: 30908402 Hash: 08734B5D0A4A577754E4C6B53BD3468A Accuracy: -m0
Conclusion: CDDA 100%
Signature: BE5D438A354DA5D4E0642EFA94B9E2F8B1268448
FILE: 02 – Take me to the top.flac
Size: 25426396 Hash: 39901D3F9759B66A05EACB7899861721 Accuracy: -m0
Conclusion: CDDA 100%
Signature: F735EBBCFEF770FFEA8EAFA35BE741204513415C
FILE: 01 – 3xxxv5.flac
Size: 9329044 Hash: 8BA1368F49E8BB412546F7B7C0129242 Accuracy: -m0
Conclusion: CDDA 100%
Signature: 94D5F55E1ADD24757E045706E7F2A109D7D2633B

nu am inteles cum sa incarc un torrent file… userii site-ului parca-s Alah Akbar cind vin intr-o tara straina…

Advertisements

Leave a Reply

Fill in your details below or click an icon to log in:

WordPress.com Logo

You are commenting using your WordPress.com account. Log Out / Change )

Twitter picture

You are commenting using your Twitter account. Log Out / Change )

Facebook photo

You are commenting using your Facebook account. Log Out / Change )

Google+ photo

You are commenting using your Google+ account. Log Out / Change )

Connecting to %s